torrent.eval.hu
Pokémon Detective Pikachu torrent letöltése

Pokémon Detective Pikachu

Pokemon.Detective.Pikachu.2019.HDRip.x264-STUTTERSHIT


  • Méret: 959.23 MB 
  • Seed: 412
  • Leech: 107
  • Kiadás éve: 2019
  • Játékidő: 104 perc
  • Stílus: Action, Adventure, Comedy, Family, Mystery, Sci-Fi
  • Rendező: Rob Letterman
  • Szereplők: Ryan Reynolds, Justice Smith, Kathryn Newton, Bill Nighy
  • IMDB értékelés: 6.8
In a world where people collect Pokémon to do battle| a boy comes across an intelligent talking
Pikachu who seeks to be a detective.


Format : AVC

Format/Info : Advanced Video Codec

Format profile : High@L3.1

Format settings : CABAC / 5 Ref Frames

Format settings, CABAC : Yes

Format settings, ReFrames : 5 frames

Codec ID : avc1

Codec ID/Info : Advanced Video Coding

Duration : 1 h 37 min

Bit rate : 1 100 kb/s

Width : 720 pixels

Height : 300 pixels

Display aspect ratio : 2.40:1

Frame rate mode : Constant

Frame rate : 30.303 FPS

Color space : YUV

Chroma subsampling : 4:2:0

Bit depth : 8 bits

Scan type : Progressive

Bits/(Pixel*Frame) : 0.168

Stream size : 774 MiB (81%)

Title : Pokemon.Detective.Pikachu.2019.HDRip.x264-STUTTERSHIT

Writing library : x264 core 148 r2795M aaa9aa8

Encoding settings : cabac=1 / ref=5 / deblock=1:-1:-1 / analyse=0x3:0x113 / me=umh / subme=9 / psy=1
/ psy_rd=1.00:0.15 / mixed_ref=1 / me_range=16 / chroma_me=1 / trellis=2 / 8x8dct=1 / cqm=0 /
deadzone=21,11 / fast_pskip=1 / chroma_qp_offset=-3 / threads=24 / lookahead_threads=2 /
sliced_threads=0 / nr=0 / decimate=1 / interlaced=0 / bluray_compat=0 / constrained_intra=0 /
bframes=3 / b_pyramid=2 / b_adapt=2 / b_bias=0 / direct=3 / weightb=1 / open_gop=0 / weightp=2 /
keyint=250 / keyint_min=25 / scenecut=40 / intra_refresh=0 / rc_lookahead=50 / rc=abr / mbtree=1 /
bitrate=1100 / ratetol=1.0 / qcomp=0.60 / qpmin=0 / qpmax=69 / qpstep=4 / ip_ratio=1.40 / aq=1:1.00

Language : English

Codec configuration box : avcC


Format : AAC LC

Format/Info : Advanced Audio Codec Low Complexity

Codec ID : mp4a-40-2

Duration : 1 h 37 min

Bit rate mode : Constant

Bit rate : 256 kb/s

Channel(s) : 2 channels

Channel layout : L R

Sampling rate : 48.0 kHz

Frame rate : 46.875 FPS (1024 SPF)

Compression mode : Lossy

Stream size : 178 MiB (19%)

Title : Pokemon.Detective.Pikachu.2019.HDRip.x264-STUTTERSHIT

Language : English

Default : Yes

Alternate group : 1                                                
Pokemon.Detective.Pikachu.2019.HDRip.x264-STUTTERSHIT.mp4959.23 MiB
RARBG.txt31 B