torrent.eval.hu
Brightburn torrent letöltése

Brightburn

Brightburn.2019.1080p.KORSUB.HDRip.x264.AAC2.0-STUTTERSHIT


  • Méret: 2.81 GB 
  • Seed: 2060
  • Leech: 584
  • Kiadás éve: 2019
  • Játékidő: 90 perc
  • Stílus: Horror, Sci-Fi
  • Rendező: David Yarovesky
  • Szereplők: Elizabeth Banks, David Denman, Jackson A. Dunn, Abraham Clinkscales
  • IMDB értékelés: 6.5
https://i.imgur.com/gMVfzdi.jpg

Plot: What if a child from another world crash-landed on Earth, but instead of becoming a hero to
mankind, he proved to be something far more sinister?

Genre: Drama | Horror | Sci-Fi | Thriller
IMDB Rating: 6.5/10 from 13,823 users
Directed by: David Yarovesky
Starring: Elizabeth Banks, Jackson A. Dunn, David Denman

Video
ID : 1
Format : AVC
Format/Info : Advanced Video Codec
Format profile : High@L4.1
Format settings : CABAC / 4 Ref Frames
Format settings, CABAC : Yes
Format settings, ReFrames : 4 frames
Codec ID : V_MPEG4/ISO/AVC
Duration : 1 h 29 min
Bit rate : 4 200 kb/s
Width : 1 920 pixels
Height : 1 080 pixels
Display aspect ratio : 16:9
Frame rate mode : Constant
Frame rate : 30.303 FPS
Color space : YUV
Chroma subsampling : 4:2:0
Bit depth : 8 bits
Scan type : Progressive
Bits/(Pixel*Frame) : 0.067
Stream size : 2.65 GiB (94%)
Title : Brightburn.2019.1080p.KORSUB.HDRip.x264.AAC2.0-STUTTERSHIT
Writing library : x264 core 142 r2479 dd79a61
Encoding settings : cabac=1 / ref=1 / deblock=1:0:0 / analyse=0x3:0x3 / me=dia / subme=1 / psy=1 /
psy_rd=1.00:0.00 / mixed_ref=0 / me_range=16 / chroma_me=1 / trellis=0 / 8x8dct=1 / cqm=0 /
deadzone=21,11 / fast_pskip=1 / chroma_qp_offset=0 / threads=24 / lookahead_threads=4 /
sliced_threads=0 / nr=0 / decimate=1 / interlaced=0 / bluray_compat=0 / constrained_intra=0 /
bframes=3 / b_pyramid=2 / b_adapt=1 / b_bias=0 / direct=1 / weightb=1 / open_gop=0 / weightp=1 /
keyint=300 / keyint_min=30 / scenecut=40 / intra_refresh=0 / rc_lookahead=0 / rc=abr / mbtree=0 /
bitrate=4200 / ratetol=1.0 / qcomp=0.60 / qpmin=0 / qpmax=69 / qpstep=4 / vbv_maxrate=62500 /
vbv_bufsize=78125 / nal_hrd=none / filler=0 / ip_ratio=1.40 / pb_ratio=1.30 / aq=1:1.00
Default : Yes
Forced : No
Color range : Limited
Color primaries : BT.709
Transfer characteristics : BT.709
Matrix coefficients : BT.709

Audio
ID : 2
Format : AAC LC
Format/Info : Advanced Audio Codec Low Complexity
Codec ID : A_AAC-2
Duration : 1 h 29 min
Bit rate : 256 kb/s
Channel(s) : 2 channels
Channel layout : L R
Sampling rate : 48.0 kHz
Frame rate : 46.875 FPS (1024 SPF)
Compression mode : Lossy
Stream size : 164 MiB (6%)
Title : Brightburn.2019.1080p.KORSUB.HDRip.x264.AAC2.0-STUTTERSHIT
Language : English
Default : Yes
Forced : No
 
https://i.imgur.com/WwyuqTc.png 
https://i.imgur.com/gA9wU6Q.png 
https://i.imgur.com/t1M8rd9.png                                                
Brightburn.2019.1080p.KORSUB.HDRip.x264.AAC2.0-STUTTERSHIT.mkv2.81 GiB
RARBG.txt31 B