torrent.eval.hu
War for the Planet of the Apes torrent letöltése

War for the Planet of the Apes

War for the Planet of the Apes (2017) HD-TS AC-3


  • Méret: 1.37 GB 
  • Seed: 1196
  • Leech: 41
  • Kiadás éve: 2017
  • Játékidő: 140 perc
  • Stílus: Action, Adventure, Drama
  • Rendező: Matt Reeves
  • Szereplők: Andy Serkis, Woody Harrelson, Steve Zahn, Karin Konoval
  • IMDB értékelés: 7.8
screens:
 
https://imgmak.com/zN3
 
https://imgmak.com/zN3
 
https://imgmak.com/zNy
 
https://imgmak.com/zN9


War for the Planet of the Apes (2017) HD-TS AC-3

Format : AVI
Format/Info : Audio Video Interleave
File size : 1.37 GiB
Duration : 2h 5mn
Overall bit rate : 1 553 Kbps
Writing application : VirtualDubMod 1.5.10.2 (build 2540/release)
Writing library : VirtualDubMod build 2540/release

Video
ID : 0
Format : MPEG-4 Visual
Format profile : Advanced [email protected]
Language:russian
Format settings, BVOP : 2
Format settings, QPel : No
Format settings, GMC : No warppoints
Format settings, Matrix : Default (MPEG)
Codec ID : XVID
Codec ID/Hint : XviD
Duration : 2h 5mn
Bit rate : 1 352 Kbps
Width : 720 pixels
Height : 288 pixels
Display aspect ratio : 2.500
Frame rate : 23.976 fps
Color space : YUV
Chroma subsampling : 4:2:0
Bit depth : 8 bits
Scan type : Progressive
Compression mode : Lossy
Bits/(Pixel*Frame) : 0.272
Stream size : 1.19 GiB (87%)
Writing library : XviD 1.2.1 (UTC 2008-12-04)

Audio
ID : 1
Format : AC-3
Format/Info : Audio Coding 3
Mode extension : CM (complete main)
Codec ID : 2000
Duration : 2h 5mn
Bit rate mode : Constant
Bit rate : 192 Kbps
Channel(s) : 2 channels
Channel positions : Front: L R
Sampling rate : 48.0 KHz
Bit depth : 16 bits
Compression mode : Lossy
Stream size : 173 MiB (12%)
Alignment : Split accross interleaves
Interleave, duration : 42 ms (1.00 video frame)
Interleave, preload duration : 500 ms                                                
War for the Planet of the Apes (2017) HD-TS AC-3 _KOSHARA.avi1.37 GiB