torrent.eval.hu
Sanam Teri Kasam torrent letöltése

Sanam Teri Kasam

Sanam Teri Kasam 2016 720p Hindi DvDRip x264 AAC-TaRa.mkv


  • Méret: 1.16 GB 
  • Seed: 25
  • Leech: 4
  • Kiadás éve: 2016
  • Játékidő: 154 perc
  • Stílus: Drama, Musical, Romance
  • Rendező: Radhika Rao, Vinay Sapru
  • Szereplők: Harshvardhan Rane, Mawra Hocane, Vijay Raaz, Murli Sharma
  • IMDB értékelés: 7.3
===================================================================================
General
Complete name               : Sanam Teri Kasam 2016  720p Hindi DvDRip x264 AAC-TaRa.mkv
Format                      : Matroska
Format version              : Version 4 / Version 2
File size                   : 1.16 GiB
Duration                    : 2h 34mn
Overall bit rate mode       : Variable
Overall bit rate            : 1 083 Kbps
Movie name                  : Sanam Teri Kasam 2016  720p Hindi DvDRip x264 AAC-TaRa  [ Kickass
Torrent ]
Encoded date                : UTC 2016-03-23 01:36:12
Writing application         : mkvmerge v8.3.0 ('Over the Horizon') 64bit
Writing library             : libebml v1.3.1 + libmatroska v1.4.2
===================================================================================
Video
ID                          : 1
Format                      : AVC
Format/Info                 : Advanced Video Codec
Format profile              : [email protected]
Format settings, CABAC      : Yes
Format settings, ReFrames   : 3 frames
Codec ID                    : V_MPEG4/ISO/AVC
Duration                    : 2h 34mn
Bit rate mode               : Variable
Bit rate                    : 1 000 Kbps
Maximum bit rate            : 40.0 Mbps
Width                       : 1 280 pixels
Height                      : 544 pixels
Display aspect ratio        : 2.35:1
Frame rate mode             : Constant
Frame rate                  : 23.976 (24000/1001) fps
Color space                 : YUV
Chroma subsampling          : 4:2:0
Bit depth                   : 8 bits
Scan type                   : Progressive
Bits/(Pixel*Frame)          : 0.060
Stream size                 : 1.08 GiB (92%)
Title                       : = __ TaRa ~ DDR __ =
Language                    : Hindi
Default                     : Yes
Forced                      : No
===================================================================================
Audio
ID                          : 2
Format                      : AAC
Format/Info                 : Advanced Audio Codec
Format profile              : HE-AAC / LC
Codec ID                    : A_AAC
Duration                    : 2h 34mn
Bit rate                    : 81.0 Kbps
Channel(s)                  : 2 channels
Channel positions           : Front: L R
Sampling rate               : 44.1 KHz / 22.05 KHz
Frame rate                  : 21.533 fps (1024 spf)
Compression mode            : Lossy
Delay relative to video     : 33ms
Stream size                 : 89.2 MiB (7%)
Title                       : = __ TaRa ~ DDR __ =
Language                    : Hindi
Default                     : Yes
Forced                      : No
=================================================================================== 
http://i.imgur.com/M4ZItDt.png 
http://i.imgur.com/PjMj0ze.png 
http://i.imgur.com/AR7FKWB.png 
http://i.imgur.com/86W9Cb9.png 
http://i.imgur.com/FJSyA7G.png 
http://i.imgur.com/N2BiHlR.png 
http://i.imgur.com/kOiDFmC.png 
http://i.imgur.com/A9kDHKP.jpg                                                
Sanam Teri Kasam 2016 720p Hindi DvDRip x264 AAC-TaRa.mkv1.16 GiB