torrent.eval.hu

Amateur Anal Sex with an Ar...

Amateur Anal Sex with an Arab Teen


  • Típus: Porn > Other
  • Méret: 113.77 MB 
  • Seed: 55
  • Leech: 7
General
Complete name               : Amtur_Anl_Sx_with_an_Arb_Tn.avi
Format                      : AVI
Format/Info                 : Audio Video Interleave
File size                   : 114 MiB
Duration                    : 57mn 27s
Overall bit rate            : 276 Kbps

Video
ID                          : 0
Format                      : MPEG-4 Visual
Format profile              : Advanced [email protected]
Format settings, BVOP       : 2
Format settings, QPel       : No
Format settings, GMC        : No warppoints
Format settings, Matrix     : Default (H.263)
Muxing mode                 : Packed bitstream
Codec ID                    : XVID
Codec ID/Hint               : XviD
Duration                    : 57mn 27s
Bit rate                    : 235 Kbps
Width                       : 320 pixels
Height                      : 240 pixels
Display aspect ratio        : 4:3
Frame rate                  : 29.970 fps
Color space                 : YUV
Chroma subsampling          : 4:2:0
Bit depth                   : 8 bits
Scan type                   : Progressive
Compression mode            : Lossy
Bits/(Pixel*Frame)          : 0.102
Stream size                 : 96.6 MiB (85%)
Writing library             : XviD 64

Audio
ID                          : 1
Format                      : MPEG Audio
Format version              : Version 2
Format profile              : Layer 2
Codec ID                    : 50
Duration                    : 57mn 27s
Bit rate mode               : Constant
Bit rate                    : 32.0 Kbps
Channel(s)                  : 1 channel
Sampling rate               : 22.05 KHz
Compression mode            : Lossy
Stream size                 : 13.1 MiB (12%)
Alignment                   : Aligned on interleaves
Interleave, duration        : 53 ms (1.58 video frames)                                                
Amtur_Anl_Sx_with_an_Arb_Tn.avi113.62 MiB
Amtur_Anl_Sx_with_an_Arb_Tn.jpg156.89 KiB
Amtur_Anl_Sx_with_an_Arb_Tn.nfo1.8 KiB